Джек Стронг / Jack Strong (2014) BDRip 720p | L1 

Цитировать

Информация о фильме
Название: Джек Стронг
Оригинальное название: Jack Strong
Год выхода: 2014
Жанр: боевик, драма, криминал, детектив, биография
Режиссер: Владислав Пасиковский
В ролях: Марчин Дорочиньский, Майя Осташевска, Патрик Уилсон, Дмитрий Биллов, Дагмара Доминчик, Олег Масленников, Кшиштоф Печиньский, Мирослав Бака, Збигнев Замаховский, Кшиштоф Глёбиш
Описание: 1968 год. Майор Рышард Куклинский готовит план военных учений стран-участниц Организации Варшавского договора. Он прекрасно понимает, что Советский Союз рассматривает возможность массированной атаки на Западную Европу и страны НАТО, которые, не имея достаточного количества обычных вооружений, будут вынуждены контратаковать с помощью ядерных ударов по его родной Польше, через которую и будут проходить силы первого и второго броска.
Самосожжение философа Рышарда Сивца в знак протеста против вторжения в Чехословакию, жестокое подавление армией забастовок в Гданьске в декабре 1970 года с помощью тяжелых пулеметов — все это склоняет уже полковника Рышарда Куклинского использовать хорошие связи в советских и польских военных кругах и доступ к совершенно секретным документам «в мирных целях», добровольно предложив сотрудничество с Центральным разведывательным управлением США.

Страна: Польша
Продолжительность: 02:07:43
Перевод: Любительский (одноголосый закадровый) Andi
Субтитры: английские, русские, польские
Оригинальная аудиодорожка: польский (мультиязыковая: польский, английский, русский, немецкий)
Файл
Качество: BDRip 720p (рип от 9mm@CtrlHD)
Видео: AVC (x264), 1280x536 (2,40:1) at 24,000 fps, 7105 Кbps
Аудио 1: AC3; 640 Kbps; CBR; 6 ch; 48 khz | VO - Аndi
Аудио 2: AC3; 640 Kbps; CBR; 6 ch; 48 khz | Польский

Скриншоты

MediaInfo

Общее
Уникальный идентификатор : 170734828825547486410921599355653356939 (0x807254F9EBD4B24A8227FC138FDA7D8B)
Полное имя : Джек Стронг.2014.L1.720p.BluRay.x264-CtrlHD.mkv
Формат : Matroska
Версия формата : Version 4 / Version 2
Размер файла : 7,63 Гбайт
Продолжительность : 2 ч. 7 м.
Общий поток : 8556 Кбит/сек
Название фильма : Jack Strong [2014] [720p] VO
Дата кодирования : UTC 2014-10-29 11:20:24
Программа кодирования : mkvmerge v7.3.0 ('Nouages') 32bit built on Oct 22 2014 18:44:01
Библиотека кодирования : libebml v1.3.0 + libmatroska v1.4.1
Видео
Идентификатор : 1
Формат : AVC
Формат/Информация : Advanced Video Codec
Профиль формата : High@L4.1
Параметр CABAC формата : Да
Параметр ReFrames формата : 12 кадров
Идентификатор кодека : V_MPEG4/ISO/AVC
Продолжительность : 2 ч. 7 м.
Битрейт : 7105 Кбит/сек
Ширина : 1280 пикселей
Высота : 536 пикселей
Соотношение сторон : 2,40:1
Режим частоты кадров : Постоянный
Частота кадров : 24,000 кадра/сек
Цветовое пространство : YUV
Субдискретизация насыщенности : 4:2:0
Битовая глубина : 8 бит
Тип развёртки : Прогрессивная
Бит/(Пиксели*Кадры) : 0.432
Размер потока : 6,34 Гбайт (83%)
Заголовок : profile.php?mode=viewprofile&u=22488948
Библиотека кодирования : x264 core 142 r2431kMod ac76440
Настройки программы : cabac=1 / ref=12 / deblock=1:-3:-3 / analyse=0x3:0x133 / me=umh / subme=10 / psy=1 / fade_compensate=0.00 / psy_rd=1.10:0.00 / mixed_ref=1 / me_range=16 / chroma_me=1 / trellis=2 / 8x8dct=1 / cqm=0 / deadzone=21,11 / fast_pskip=0 / chroma_qp_offset=-2 / threads=6 / lookahead_threads=1 / sliced_threads=0 / nr=0 / decimate=0 / interlaced=0 / bluray_compat=0 / constrained_intra=0 / fgo=0 / bframes=10 / b_pyramid=2 / b_adapt=2 / b_bias=0 / direct=3 / weightb=1 / open_gop=0 / weightp=2 / keyint=250 / keyint_min=24 / scenecut=40 / intra_refresh=0 / rc=crf / mbtree=0 / crf=17.0000 / qcomp=0.70 / qpmin=0 / qpmax=69 / qpstep=4 / ip_ratio=1.20 / pb_ratio=1.10 / aq=1:0.80 / zones=0,3360,crf=14
Язык : Polish
Default : Да
Forced : Нет
Аудио #1
Идентификатор : 2
Формат : AC-3
Формат/Информация : Audio Coding 3
Расширение режима : CM (complete main)
Параметр Endianness формата : Big
Идентификатор кодека : A_AC3
Продолжительность : 2 ч. 7 м.
Вид битрейта : Постоянный
Битрейт : 640 Кбит/сек
Каналы : 6 каналов
Расположение каналов : Front: L C R, Side: L R, LFE
Частота : 48,0 КГц
Битовая глубина : 16 бит
Метод сжатия : С потерями
Размер потока : 585 Мбайт (7%)
Заголовок : VO [Andi]
Язык : Russian
Default : Да
Forced : Нет
Аудио #2
Идентификатор : 3
Формат : AC-3
Формат/Информация : Audio Coding 3
Расширение режима : CM (complete main)
Параметр Endianness формата : Big
Идентификатор кодека : A_AC3
Продолжительность : 2 ч. 7 м.
Вид битрейта : Постоянный
Битрейт : 640 Кбит/сек
Каналы : 6 каналов
Расположение каналов : Front: L C R, Side: L R, LFE
Частота : 48,0 КГц
Битовая глубина : 16 бит
Метод сжатия : С потерями
Размер потока : 585 Мбайт (7%)
Язык : Polish
Default : Нет
Forced : Нет
Текст #1
Идентификатор : 4
Формат : UTF-8
Идентификатор кодека : S_TEXT/UTF8
Идентификатор кодека/Информация : UTF-8 Plain Text
Язык : English
Default : Нет
Forced : Нет
Текст #2
Идентификатор : 5
Формат : UTF-8
Идентификатор кодека : S_TEXT/UTF8
Идентификатор кодека/Информация : UTF-8 Plain Text
Язык : Polish
Default : Нет
Forced : Нет
Текст #3
Идентификатор : 6
Формат : UTF-8
Идентификатор кодека : S_TEXT/UTF8
Идентификатор кодека/Информация : UTF-8 Plain Text
Язык : Russian
Default : Нет
Forced : Нет
Меню
00:00:00.000 : en:Chapter 1
00:05:37.708 : en:Chapter 2
00:15:22.000 : en:Chapter 3
00:23:44.917 : en:Chapter 4
00:32:04.250 : en:Chapter 5
00:41:12.083 : en:Chapter 6
00:48:47.958 : en:Chapter 7
00:57:43.083 : en:Chapter 8
01:03:07.458 : en:Chapter 9
01:10:29.958 : en:Chapter 10
01:20:39.167 : en:Chapter 11
01:27:39.250 : en:Chapter 12
01:35:38.333 : en:Chapter 13
01:44:30.000 : en:Chapter 14
01:56:35.667 : en:Chapter 15
02:00:26.292 : en:Chapter 16
Вы не можете начинать темы
Вы не можете отвечать на сообщения
Вы не можете редактировать свои сообщения
Вы не можете удалять свои сообщения
Вы не можете голосовать в опросах
Вы не можете прикреплять файлы к сообщениям
Вы можете скачивать файлы
!ВНИМАНИЕ!

Сайт не предоставляет электронные версии произведений, а занимается лишь коллекционированием и каталогизацией ссылок, присылаемых и публикуемых на форуме нашими читателями. Если вы являетесь правообладателем какого-либо представленного материала и не желаете, чтобы ссылка на него находилась в нашем каталоге, свяжитесь с нами, и мы незамедлительно удалим ее. Файлы для обмена на трекере предоставлены пользователями сайта, и администрация не несет ответственности за их содержание. Просьба не заливать файлы, защищенные авторскими правами, а также файлы нелегального содержания!

Искали программы, игры, дополнения, музыка mp3, аниме, аудио книги, журналы? Добро пожаловать на свободный торрент трекер Torrents, у нас можно скачать бесплатно, без смс и регистрации и прочих ограничений лучшие, отборные сборки программ, игр. Скачать торрентом не составит труда даже не опытному пользователю. Раздачи ежедневно обновляются, только лучшие и качественные раздачи, подробные описания и скриншоты. Огромная коллекция программ для работы со звуком, графикой, дизайном, а так же множество плагинов и инструментов к ним с подробной инструкцией и рекомендациями. Прошивки для навигаторов, карты. Разнообразные игры, для Windows, Linux. В коллекцие есть и старые игры любых жанров, Rpg, Action, Shooter, strategy Множество дополнений, модификаций, сценариев для популярных игр в жанре экш, рпг, гонки, стратегии, логические игры. Множество аддонов и сценариев для Microsoft Flight Simulator Большая коллекция книг, учебников. Если нет возможности купить печатное издание - смело скачивайте цифровую версию книги или, быть может, журнала. Не любите читать - можно загрузить бесплатно аудикнигу. Для веб дизайнеров и программистов так же найдется множество специализированного софта, таких как: редакторы с подсветкой, среды программирования, компоненты, системы управления базами данных, разнообразные скрипты и шаблоны. Не так давно у нас появился материал для автолюбителей и владельцев мото - оригинальные и неоригинальные каталоги запчастей, книги и журналы по ремонту и обслуживанию, видеоуроки, статьи по чип тюнингу, прошивкам. Процедура получения контента элементарная, достаточно просто скачать торрент файл и добавить его в загрузку в вашем торрент клиенте. Если у вас нет специального торрент клиента, вы можете его скачать у нас.