Сериал Ольга, 2 сезон новые серии 

Цитировать
Ольга
Год выпуска: 2017
Производство: Россия, Гуд Стори Медиа
Жанр: Комедия, драма
Продолжительность: ~ 00:24:00 / Серия
Субтитры: Нет
Режиссёр: Алексей Нужный, Игорь Волошин
В ролях: Яна Троянова, Василий Кортуков, Алина Алексеева, Ксения Суркова, Сергей Романович, Максим Костромыкин, Фархад Гусейнов, Борис Дергачев, Александр Шам, Александр Никольский
Описание: Продолжение понравившегося многим российского сериала "Ольга" с канала ТНТ, в главной роли с Яной Трояновой.
У главной героини двое детей - старшая Анна - студент ПТУ, считает себя единственным нормальным адекватным членом семьи, и младший - Тимофей - считает себя взрослым мужчиной, хотя ему всего 11. Дети от разных браков, отец Ольги алкаголик, требующий постоянно заботы от Ольги. Вечно спасая родню от неприятностей, героиня живет чужой жизнью и мало заботится о себе....пока в нее не влюбялется простой но добрый вожитель газельки - Григорий.
Сериал "Ольга" русский сериал-комедия, повествующий о жизни обычной российской женщины из района Москвы - Чертаново. Трансляция на телеканала ТНТ ведется с 5 сентября 2016 года. Премьера 2 сезона состоялась 4 сентября 2017г.

Качество: WEBRip
Формат: AVI
Видео кодек: XviD
Аудио кодек: MP3
Видео: XviD, 720x400 (16:9), ~ 1800 Кбит/с, 25 кадр/с, 0.275 bit/pixel
Аудио: Русский, MP3, 48000 Гц, 128 Кбит/с, 2 канала (Стерео)

MediaInfo

General
Complete name : Ol'ga.s02.e01.2017.WEB-DLRip.avi
Format : AVI
Format/Info : Audio Video Interleave
File size : 323 MiB
Duration : 23mn 20s
Overall bit rate : 1 938 Kbps
Writing application : VirtualDubMod 1.5.10.3 | http://kogudu.net.ru || (build 2550/release)
Writing library : VirtualDubMod build 2550/release
Video
ID : 0
Format : MPEG-4 Visual
Format profile : Advanced Simple@L5
Format settings, BVOP : 1
Format settings, QPel : No
Format settings, GMC : No warppoints
Format settings, Matrix : Custom
Codec ID : XVID
Codec ID/Hint : XviD
Duration : 23mn 20s
Bit rate : 1 800 Kbps
Width : 720 pixels
Height : 400 pixels
Display aspect ratio : 16:9
Frame rate : 25.000 fps
Color space : YUV
Chroma subsampling : 4:2:0
Bit depth : 8 bits
Scan type : Progressive
Compression mode : Lossy
Bits/(Pixel*Frame) : 0.250
Stream size : 300 MiB (93%)
Writing library : XviD 73
Audio
ID : 1
Format : MPEG Audio
Format version : Version 1
Format profile : Layer 3
Codec ID : 55
Codec ID/Hint : MP3
Duration : 23mn 20s
Bit rate mode : Constant
Bit rate : 128 Kbps
Channel(s) : 2 channels
Sampling rate : 48.0 KHz
Compression mode : Lossy
Stream size : 21.4 MiB (7%)
Alignment : Aligned on interleaves
Interleave, duration : 40 ms (1.00 video frame)
Interleave, preload duration : 504 ms
Writing library : LAME3.99r
Encoding settings : -m s -V 4 -q 0 -lowpass 17 -b 128

Скриншоты

Вы не можете начинать темы
Вы не можете отвечать на сообщения
Вы не можете редактировать свои сообщения
Вы не можете удалять свои сообщения
Вы не можете голосовать в опросах
Вы не можете прикреплять файлы к сообщениям
Вы можете скачивать файлы
!ВНИМАНИЕ!

Сайт не предоставляет электронные версии произведений, а занимается лишь коллекционированием и каталогизацией ссылок, присылаемых и публикуемых на форуме нашими читателями. Если вы являетесь правообладателем какого-либо представленного материала и не желаете, чтобы ссылка на него находилась в нашем каталоге, свяжитесь с нами, и мы незамедлительно удалим ее. Файлы для обмена на трекере предоставлены пользователями сайта, и администрация не несет ответственности за их содержание. Просьба не заливать файлы, защищенные авторскими правами, а также файлы нелегального содержания!

Искали программы, игры, дополнения, музыка mp3, аниме, аудио книги, журналы? Добро пожаловать на свободный торрент трекер Torrents, у нас можно скачать бесплатно, без смс и регистрации и прочих ограничений лучшие, отборные сборки программ, игр. Скачать торрентом не составит труда даже не опытному пользователю. Раздачи ежедневно обновляются, только лучшие и качественные раздачи, подробные описания и скриншоты. Огромная коллекция программ для работы со звуком, графикой, дизайном, а так же множество плагинов и инструментов к ним с подробной инструкцией и рекомендациями. Прошивки для навигаторов, карты. Разнообразные игры, для Windows, Linux. В коллекцие есть и старые игры любых жанров, Rpg, Action, Shooter, strategy Множество дополнений, модификаций, сценариев для популярных игр в жанре экш, рпг, гонки, стратегии, логические игры. Множество аддонов и сценариев для Microsoft Flight Simulator Большая коллекция книг, учебников. Если нет возможности купить печатное издание - смело скачивайте цифровую версию книги или, быть может, журнала. Не любите читать - можно загрузить бесплатно аудикнигу. Для веб дизайнеров и программистов так же найдется множество специализированного софта, таких как: редакторы с подсветкой, среды программирования, компоненты, системы управления базами данных, разнообразные скрипты и шаблоны. Не так давно у нас появился материал для автолюбителей и владельцев мото - оригинальные и неоригинальные каталоги запчастей, книги и журналы по ремонту и обслуживанию, видеоуроки, статьи по чип тюнингу, прошивкам. Процедура получения контента элементарная, достаточно просто скачать торрент файл и добавить его в загрузку в вашем торрент клиенте. Если у вас нет специального торрент клиента, вы можете его скачать у нас.