Portugal. The Man - iTunes Music Videos Collection / Видеоклипы [2011-2017, USA, Indie Rock, WEB-DL, HD (720p)] 

Цитировать
Portugal. The Man Жанр: Indie Rock
Год издания: 2011-2017
Страна: USA
Аудио кодек: aac
Тип рипа: tracks
Битрейт аудио: 256 kbps
Продолжительность: 00:35:01
Источник: iTunes Store
Вшитые тексты: нет
Наличие сканов в содержимом раздачи: нет

2011 - All Your Light (Times Like These) [Animated Version]

Качество: WEB-DL
Продолжительность: 00:04:41
Формат: MPEG-4
Видео: H.264, 720 x 480, 29.970 fps, 1531 Kbps, без анаморфа
Аудио: Русский (AAC Stereo, 256 Kbps, 48 KHz)

Отчёт MediaInfo

Общее
Полное имя : F:\Мои Раздачи\!iTunes\Portugal. The Man\Videos\2011 - All Your Light (Times Like These) [Animated Version].m4v
Формат : MPEG-4
Идентификатор кодека : M4V (M4V /mp42/isom)
Размер файла : 60,7 Мбайт
Продолжительность : 4 м. 41 с.
Общий поток : 1808 Кбит/сек
Название фильма : All Your Light (Times Like These) [Animated Version]
Альбом : In the Mountain in the Cloud
Альбом/Исполнитель : Portugal. The Man
Часть/Положение : 1
Часть/Всего : 1
Трек/Положение : 1
Трек/Всего : 1
Исполнитель : Portugal. The Man
Жанр : Альтернативная музыка
Тип содержимого : Music Video
Дата записи : UTC 2011-12-09 08:00:00
Дата кодирования : UTC 2015-03-20 11:48:04
Дата пометки : UTC 2015-03-20 11:48:04
Авторское право : ℗ 2011 Atlantic Recording Corporation for the United States and WEA International Inc. for the world outside of the United States
Обложка : Yes
Оценка : None
ownr : Евгений Степанов
Flavour : 8:480p
PurchaseDate : 2017-06-17 20:24:08
ITUNEXTC : ||0|
Видео
Идентификатор : 1
Формат : AVC
Формат/Информация : Advanced Video Codec
Профиль формата : Main@L3
Параметр CABAC формата : Нет
Параметр ReFrames формата : 2 кадра
Параметр GOP формата : M=2, N=90
Идентификатор кодека : avc1
Идентификатор кодека/Информация : Advanced Video Coding
Продолжительность : 4 м. 41 с.
Продолжительность оригинала : 4 м. 41 с.
Битрейт : 1531 Кбит/сек
Ширина : 720 пикселей
Высота : 480 пикселей
Соотношение сторон : 16:9
Соотношение сторон в оригинале : 16:9
Режим частоты кадров : Постоянный
Частота кадров : 23,976 (23976/1000) кадра/сек
Цветовое пространство : YUV
Субдискретизация насыщенности : 4:2:0
Битовая глубина : 8 бит
Тип развёртки : Прогрессивная
Бит/(Пиксели*Кадры) : 0.185
Размер потока : 51,4 Мбайт (85%)
Размер потока оригинала : 51,4 Мбайт (85%)
Заголовок : Core Media Video
Язык : English
Дата кодирования : UTC 2015-03-20 11:48:04
Дата пометки : UTC 2015-03-20 11:48:04
Цветовой диапазон : Limited
Основные цвета : BT.709
Характеристики трансфера : BT.709
Коэффициенты матрицы : BT.709
Аудио
Идентификатор : 2
Формат : AAC
Формат/Информация : Advanced Audio Codec
Профиль формата : LC
Идентификатор кодека : 40
Продолжительность : 4 м. 41 с.
Продолжительность оригинала : 4 м. 41 с.
Вид битрейта : Постоянный
Битрейт : 243 Кбит/сек
Номинальный битрейт : 256 Кбит/сек
Каналы : 2 канала
Расположение каналов : Front: L R
Частота : 44,1 КГц
Частота кадров : 43,066 кадра/сек (1024 spf)
Метод сжатия : С потерями
Размер потока : 8,16 Мбайт (13%)
Размер потока оригинала : 8,16 Мбайт (13%)
Заголовок : Core Media Audio
Язык : English
Дата кодирования : UTC 2015-03-20 11:48:04
Дата пометки : UTC 2015-03-20 11:48:04

Скриншоты

2011 - So American

Качество: WEB-DL
Продолжительность: 00:03:36
Формат: MPEG-4
Видео: H.264, 720 x 480, 29.970 fps, 1 567 Kbps, без анаморфа
Аудио: Русский (AAC Stereo, 256 Kbps, 48 KHz)

Отчёт MediaInfo

Общее
Полное имя : F:\Мои Раздачи\!iTunes\Portugal. The Man\Videos\2011 - So American.m4v
Формат : MPEG-4
Идентификатор кодека : M4V (M4V /mp42/isom)
Размер файла : 46,3 Мбайт
Продолжительность : 3 м. 36 с.
Общий поток : 1797 Кбит/сек
Название фильма : So American
Альбом : In the Mountain in the Cloud
Альбом/Исполнитель : Portugal. The Man
Часть/Положение : 1
Часть/Всего : 1
Трек/Положение : 1
Трек/Всего : 1
Исполнитель : Portugal. The Man
Жанр : Альтернативная музыка
Тип содержимого : Music Video
Дата записи : UTC 2011-09-30 07:00:00
Дата кодирования : UTC 2017-02-27 23:16:39
Дата пометки : UTC 2017-02-27 23:16:39
Авторское право : ℗ 2011 Atlantic Recording Corporation for the United States and WEA International Inc. for the world outside of the United States
Обложка : Yes
Оценка : None
ownr : Евгений Степанов
Flavour : 8:480p
PurchaseDate : 2017-06-17 20:22:14
ITUNEXTC : ||0|
Видео
Идентификатор : 1
Формат : AVC
Формат/Информация : Advanced Video Codec
Профиль формата : Main@L3
Параметр CABAC формата : Нет
Параметр ReFrames формата : 2 кадра
Параметр GOP формата : M=2, N=90
Идентификатор кодека : avc1
Идентификатор кодека/Информация : Advanced Video Coding
Продолжительность : 3 м. 36 с.
Duration_LastFrame : -1 мс.
Битрейт : 1495 Кбит/сек
Ширина : 720 пикселей
Высота : 480 пикселей
Соотношение сторон : 16:9
Соотношение сторон в оригинале : 16:9
Режим частоты кадров : Постоянный
Частота кадров : 23,976 (23976/1000) кадра/сек
Цветовое пространство : YUV
Субдискретизация насыщенности : 4:2:0
Битовая глубина : 8 бит
Тип развёртки : Прогрессивная
Бит/(Пиксели*Кадры) : 0.180
Размер потока : 38,5 Мбайт (83%)
Заголовок : Core Media Video
Язык : English
Дата кодирования : UTC 2017-02-27 23:16:39
Дата пометки : UTC 2017-02-27 23:16:39
Цветовой диапазон : Limited
Основные цвета : BT.709
Характеристики трансфера : BT.709
Коэффициенты матрицы : BT.709
Аудио
Идентификатор : 2
Формат : AAC
Формат/Информация : Advanced Audio Codec
Профиль формата : LC
Идентификатор кодека : 40
Продолжительность : 3 м. 36 с.
Продолжительность оригинала : 3 м. 36 с.
Вид битрейта : Постоянный
Битрейт : 256 Кбит/сек
Каналы : 2 канала
Расположение каналов : Front: L R
Частота : 48,0 КГц
Частота кадров : 46,875 кадров/сек (1024 spf)
Метод сжатия : С потерями
Размер потока : 6,65 Мбайт (14%)
Размер потока оригинала : 6,65 Мбайт (14%)
Заголовок : Core Media Audio
Язык : English
Дата кодирования : UTC 2017-02-27 23:16:39
Дата пометки : UTC 2017-02-27 23:16:39

Скриншоты

2011 - So American (Acoustic)

Качество: WEB-DL
Продолжительность: 00:03:43
Формат: MPEG-4
Видео: H.264, 720 x 480, 29.970 fps, 1551 Кбит/сек Kbps, без анаморфа
Аудио: Русский (AAC Stereo, 256 Kbps, 48 KHz)

Отчёт MediaInfo

Общее
Полное имя : F:\Мои Раздачи\!iTunes\Portugal. The Man\Videos\2011 - So American (Acoustic).m4v
Формат : MPEG-4
Идентификатор кодека : M4V (M4V /mp42/isom)
Размер файла : 49,3 Мбайт
Продолжительность : 3 м. 43 с.
Общий поток : 1845 Кбит/сек
Название фильма : So American (Acoustic)
Альбом : In the Mountain in the Cloud
Альбом/Исполнитель : Portugal. The Man
Часть/Положение : 1
Часть/Всего : 1
Трек/Положение : 1
Трек/Всего : 1
Исполнитель : Portugal. The Man
Жанр : Альтернативная музыка
Тип содержимого : Music Video
Дата записи : UTC 2011-09-28 07:00:00
Дата кодирования : UTC 2015-05-18 19:38:24
Дата пометки : UTC 2015-05-18 19:38:25
Авторское право : ℗ 2011 Atlantic Recording Corporation for the United States and WEA International Inc. for the world outside of the United States
Обложка : Yes
Оценка : None
ownr : Евгений Степанов
Flavour : 8:480p
PurchaseDate : 2017-06-17 20:23:44
ITUNEXTC : ||0|
Видео
Идентификатор : 1
Формат : AVC
Формат/Информация : Advanced Video Codec
Профиль формата : Main@L3
Параметр CABAC формата : Нет
Параметр ReFrames формата : 2 кадра
Параметр GOP формата : M=2, N=90
Идентификатор кодека : avc1
Идентификатор кодека/Информация : Advanced Video Coding
Продолжительность : 3 м. 43 с.
Продолжительность оригинала : 3 м. 43 с.
Битрейт : 1551 Кбит/сек
Ширина : 720 пикселей
Высота : 480 пикселей
Соотношение сторон : 16:9
Соотношение сторон в оригинале : 16:9
Режим частоты кадров : Постоянный
Частота кадров : 29,970 (29970/1000) кадров/сек
Стандарт вещания : NTSC
Цветовое пространство : YUV
Субдискретизация насыщенности : 4:2:0
Битовая глубина : 8 бит
Тип развёртки : Прогрессивная
Бит/(Пиксели*Кадры) : 0.150
Размер потока : 41,4 Мбайт (84%)
Размер потока оригинала : 41,4 Мбайт (84%)
Заголовок : Core Media Video
Язык : English
Дата кодирования : UTC 2015-05-18 19:38:24
Дата пометки : UTC 2015-05-18 19:38:25
Цветовой диапазон : Limited
Основные цвета : BT.709
Характеристики трансфера : BT.709
Коэффициенты матрицы : BT.709
Аудио
Идентификатор : 2
Формат : AAC
Формат/Информация : Advanced Audio Codec
Профиль формата : LC
Идентификатор кодека : 40
Продолжительность : 3 м. 43 с.
Продолжительность оригинала : 3 м. 44 с.
Вид битрейта : Постоянный
Битрейт : 256 Кбит/сек
Каналы : 2 канала
Расположение каналов : Front: L R
Частота : 48,0 КГц
Частота кадров : 46,875 кадров/сек (1024 spf)
Метод сжатия : С потерями
Размер потока : 6,69 Мбайт (14%)
Размер потока оригинала : 6,69 Мбайт (14%)
Заголовок : Core Media Audio
Язык : English
Дата кодирования : UTC 2015-05-18 19:38:24
Дата пометки : UTC 2015-05-18 19:38:25

Скриншоты

2013 - Evil Friends

Качество: WEB-DL
Продолжительность: 00:03:38
Формат: MPEG-4
Видео: H.264, 720 x 480, 29.970 fps, 1 888 Kbps, без анаморфа
Аудио: Русский (AAC Stereo, 256 Kbps, 48 KHz)

Отчёт MediaInfo

Общее
Полное имя : F:\Мои Раздачи\!iTunes\Portugal. The Man\Videos\2013 - Evil Friends.m4v
Формат : MPEG-4
Идентификатор кодека : M4V (M4V /mp42/isom)
Размер файла : 46,6 Мбайт
Продолжительность : 3 м. 38 с.
Общий поток : 1788 Кбит/сек
Название фильма : Evil Friends
Альбом : Evil Friends
Альбом/Исполнитель : Portugal. The Man
Часть/Положение : 1
Часть/Всего : 1
Трек/Положение : 1
Трек/Всего : 1
Исполнитель : Portugal. The Man
Жанр : Альтернативная музыка
Тип содержимого : Music Video
Дата записи : UTC 2013-03-11 07:00:00
Дата кодирования : UTC 2017-02-27 23:21:31
Дата пометки : UTC 2017-02-27 23:21:32
Авторское право : ℗ 2013 Atlantic Recording Corporation for the United States and WEA International Inc. for the world outside of the United States
Обложка : Yes
Оценка : None
ownr : Евгений Степанов
Flavour : 8:480p
PurchaseDate : 2017-06-17 20:22:23
ITUNEXTC : ||0|
Видео
Идентификатор : 1
Формат : AVC
Формат/Информация : Advanced Video Codec
Профиль формата : Main@L3
Параметр CABAC формата : Нет
Параметр ReFrames формата : 2 кадра
Параметр GOP формата : M=2, N=90
Идентификатор кодека : avc1
Идентификатор кодека/Информация : Advanced Video Coding
Продолжительность : 3 м. 38 с.
Битрейт : 1495 Кбит/сек
Ширина : 720 пикселей
Высота : 480 пикселей
Соотношение сторон : 16:9
Соотношение сторон в оригинале : 16:9
Режим частоты кадров : Постоянный
Частота кадров : 23,976 (23976/1000) кадра/сек
Цветовое пространство : YUV
Субдискретизация насыщенности : 4:2:0
Битовая глубина : 8 бит
Тип развёртки : Прогрессивная
Бит/(Пиксели*Кадры) : 0.180
Размер потока : 39,0 Мбайт (84%)
Заголовок : Core Media Video
Язык : English
Дата кодирования : UTC 2017-02-27 23:21:31
Дата пометки : UTC 2017-02-27 23:21:32
Цветовой диапазон : Limited
Основные цвета : BT.709
Характеристики трансфера : BT.709
Коэффициенты матрицы : BT.709
Аудио
Идентификатор : 2
Формат : AAC
Формат/Информация : Advanced Audio Codec
Профиль формата : LC
Идентификатор кодека : 40
Продолжительность : 3 м. 38 с.
Продолжительность оригинала : 3 м. 38 с.
Вид битрейта : Постоянный
Битрейт : 256 Кбит/сек
Каналы : 2 канала
Расположение каналов : Front: L R
Частота : 44,1 КГц
Частота кадров : 43,066 кадра/сек (1024 spf)
Метод сжатия : С потерями
Размер потока : 6,50 Мбайт (14%)
Размер потока оригинала : 6,50 Мбайт (14%)
Заголовок : Core Media Audio
Язык : English
Дата кодирования : UTC 2017-02-27 23:21:31
Дата пометки : UTC 2017-02-27 23:21:32

Скриншоты

2013 - Modern Jesus

Качество: WEB-DL
Продолжительность: 00:03:29
Формат: MPEG-4
Видео: H.264, 720 x 480, 29.970 fps, 1560 Kbps, без анаморфа
Аудио: Русский (AAC Stereo, 256 Kbps, 48 KHz)

Отчёт MediaInfo

Общее
Полное имя : F:\Мои Раздачи\!iTunes\Portugal. The Man\Videos\2013 - Modern Jesus.m4v
Формат : MPEG-4
Идентификатор кодека : M4V (M4V /mp42/isom)
Размер файла : 46,3 Мбайт
Продолжительность : 3 м. 29 с.
Общий поток : 1855 Кбит/сек
Название фильма : Modern Jesus
Альбом : Evil Friends
Альбом/Исполнитель : Portugal. The Man
Часть/Положение : 1
Часть/Всего : 1
Трек/Положение : 1
Трек/Всего : 1
Исполнитель : Portugal. The Man
Жанр : Альтернативная музыка
Тип содержимого : Music Video
Дата записи : UTC 2013-08-09 07:00:00
Дата кодирования : UTC 2017-02-27 23:10:06
Дата пометки : UTC 2017-02-27 23:10:06
Авторское право : ℗ 2013 Atlantic Recording Corporation for the United States and WEA International Inc. for the world outside of the United States
Обложка : Yes
Оценка : None
ownr : Евгений Степанов
Flavour : 8:480p
PurchaseDate : 2017-06-17 20:24:40
ITUNEXTC : ||0|
Видео
Идентификатор : 1
Формат : AVC
Формат/Информация : Advanced Video Codec
Профиль формата : Main@L3
Параметр CABAC формата : Нет
Параметр ReFrames формата : 2 кадра
Параметр GOP формата : M=2, N=90
Идентификатор кодека : avc1
Идентификатор кодека/Информация : Advanced Video Coding
Продолжительность : 3 м. 29 с.
Duration_LastFrame : -1 мс.
Битрейт : 1560 Кбит/сек
Ширина : 720 пикселей
Высота : 480 пикселей
Соотношение сторон : 16:9
Соотношение сторон в оригинале : 16:9
Режим частоты кадров : Постоянный
Частота кадров : 23,976 (23976/1000) кадра/сек
Цветовое пространство : YUV
Субдискретизация насыщенности : 4:2:0
Битовая глубина : 8 бит
Тип развёртки : Прогрессивная
Бит/(Пиксели*Кадры) : 0.188
Размер потока : 38,9 Мбайт (84%)
Заголовок : Core Media Video
Язык : English
Дата кодирования : UTC 2017-02-27 23:10:06
Дата пометки : UTC 2017-02-27 23:10:06
Цветовой диапазон : Limited
Основные цвета : BT.709
Характеристики трансфера : BT.709
Коэффициенты матрицы : BT.709
Аудио
Идентификатор : 2
Формат : AAC
Формат/Информация : Advanced Audio Codec
Профиль формата : LC
Идентификатор кодека : 40
Продолжительность : 3 м. 29 с.
Продолжительность оригинала : 3 м. 29 с.
Вид битрейта : Постоянный
Битрейт : 256 Кбит/сек
Каналы : 2 канала
Расположение каналов : Front: L R
Частота : 44,1 КГц
Частота кадров : 43,066 кадра/сек (1024 spf)
Метод сжатия : С потерями
Размер потока : 6,22 Мбайт (13%)
Размер потока оригинала : 6,22 Мбайт (13%)
Заголовок : Core Media Audio
Язык : English
Дата кодирования : UTC 2017-02-27 23:10:06
Дата пометки : UTC 2017-02-27 23:10:06

Скриншоты

2013 - Purple Yellow Red and Blue

Качество: WEB-DL
Продолжительность: 00:04:18
Формат: MPEG-4
Видео: H.264, 720 x 480, 29.970 fps, 1 522 Kbps, без анаморфа
Аудио: Русский (AAC Stereo, 256 Kbps, 48 KHz)

Отчёт MediaInfo

Общее
Полное имя : F:\Мои Раздачи\!iTunes\Portugal. The Man\Videos\2013 - Purple Yellow Red and Blue.m4v
Формат : MPEG-4
Идентификатор кодека : M4V (M4V /mp42/isom)
Размер файла : 55,7 Мбайт
Продолжительность : 4 м. 18 с.
Общий поток : 1811 Кбит/сек
Название фильма : Purple Yellow Red and Blue
Альбом : Evil Friends
Альбом/Исполнитель : Portugal. The Man
Часть/Положение : 1
Часть/Всего : 1
Трек/Положение : 1
Трек/Всего : 1
Исполнитель : Portugal. The Man
Жанр : Альтернативная музыка
Тип содержимого : Music Video
Дата записи : UTC 2013-04-26 07:00:00
Дата кодирования : UTC 2017-02-27 23:22:41
Дата пометки : UTC 2017-02-27 23:22:42
Авторское право : ℗ 2013 Atlantic Recording Corporation for the United States and WEA International Inc. for the world outside of the United States
Обложка : Yes
Оценка : None
ownr : Евгений Степанов
Flavour : 8:480p
PurchaseDate : 2017-06-17 20:22:49
ITUNEXTC : ||0|
Видео
Идентификатор : 1
Формат : AVC
Формат/Информация : Advanced Video Codec
Профиль формата : Main@L3
Параметр CABAC формата : Нет
Параметр ReFrames формата : 2 кадра
Параметр GOP формата : M=2, N=90
Идентификатор кодека : avc1
Идентификатор кодека/Информация : Advanced Video Coding
Продолжительность : 4 м. 18 с.
Продолжительность оригинала : 4 м. 18 с.
Битрейт : 1522 Кбит/сек
Ширина : 720 пикселей
Высота : 480 пикселей
Соотношение сторон : 16:9
Соотношение сторон в оригинале : 16:9
Режим частоты кадров : Постоянный
Частота кадров : 23,976 (23976/1000) кадра/сек
Цветовое пространство : YUV
Субдискретизация насыщенности : 4:2:0
Битовая глубина : 8 бит
Тип развёртки : Прогрессивная
Бит/(Пиксели*Кадры) : 0.184
Размер потока : 46,9 Мбайт (84%)
Размер потока оригинала : 46,9 Мбайт (84%)
Заголовок : Core Media Video
Язык : English
Дата кодирования : UTC 2017-02-27 23:22:41
Дата пометки : UTC 2017-02-27 23:22:42
Цветовой диапазон : Limited
Основные цвета : BT.709
Характеристики трансфера : BT.709
Коэффициенты матрицы : BT.709
Аудио
Идентификатор : 2
Формат : AAC
Формат/Информация : Advanced Audio Codec
Профиль формата : LC
Идентификатор кодека : 40
Продолжительность : 4 м. 18 с.
Продолжительность оригинала : 4 м. 18 с.
Вид битрейта : Постоянный
Битрейт : 256 Кбит/сек
Каналы : 2 канала
Расположение каналов : Front: L R
Частота : 44,1 КГц
Частота кадров : 43,066 кадра/сек (1024 spf)
Метод сжатия : С потерями
Размер потока : 7,75 Мбайт (14%)
Размер потока оригинала : 7,75 Мбайт (14%)
Заголовок : Core Media Audio
Язык : English
Дата кодирования : UTC 2017-02-27 23:22:42
Дата пометки : UTC 2017-02-27 23:22:42

Скриншоты

2017 - Feel It Still

Качество: WEB-DL
Продолжительность: 00:02:52
Формат: MPEG-4
Видео: H.264, 720 x 354, 29.970 fps, 1 528 Kbps, без анаморфа
Аудио: Русский (AAC Stereo, 256 Kbps, 48 KHz)

Отчёт MediaInfo

бщее
Полное имя : F:\Мои Раздачи\!iTunes\Portugal. The Man\Videos\2017 - Feel It Still.m4v
Формат : MPEG-4
Идентификатор кодека : M4V (M4V /mp42/isom)
Размер файла : 37,6 Мбайт
Продолжительность : 2 м. 52 с.
Режим общего битрейта : Переменный
Общий поток : 1832 Кбит/сек
Название фильма : Feel It Still
Альбом : Woodstock
Альбом/Исполнитель : Portugal. The Man
Часть/Положение : 1
Часть/Всего : 1
Трек/Положение : 1
Трек/Всего : 1
Исполнитель : Portugal. The Man
Жанр : Альтернативная музыка
Тип содержимого : Music Video
Дата записи : UTC 2017-03-13 07:00:00
Дата кодирования : UTC 2017-05-11 09:20:56
Дата пометки : UTC 2017-05-11 09:20:56
Авторское право : ℗ 2017 Atlantic Recording Corporation for the United States and WEA International Inc. for the world outside of the United States. A Warner Music Group Company
Обложка : Yes
Оценка : None
ownr : Евгений Степанов
Flavour : 8:480p
PurchaseDate : 2017-06-17 20:25:16
ITUNEXTC : ||0|
Видео
Идентификатор : 1
Формат : AVC
Формат/Информация : Advanced Video Codec
Профиль формата : Main@L3
Параметр CABAC формата : Нет
Параметр ReFrames формата : 2 кадра
Идентификатор кодека : avc1
Идентификатор кодека/Информация : Advanced Video Coding
Продолжительность : 2 м. 52 с.
Битрейт : 1528 Кбит/сек
Ширина : 720 пикселей
Высота : 354 пикселя
Соотношение сторон : 2,40:1
Соотношение сторон в оригинале : 2,40:1
Режим частоты кадров : Переменный
Частота кадров : 23,976 (23976/1000) кадра/сек
Минимальная частота кадров : 23,976 кадра/сек
Максимальная частота кадров : 3428,572 кадров/сек
Цветовое пространство : YUV
Субдискретизация насыщенности : 4:2:0
Битовая глубина : 8 бит
Тип развёртки : Прогрессивная
Бит/(Пиксели*Кадры) : 0.250
Размер потока : 31,4 Мбайт (83%)
Заголовок : Core Media Video
Язык : English
Дата кодирования : UTC 2017-05-11 09:20:56
Дата пометки : UTC 2017-05-11 09:20:56
Цветовой диапазон : Limited
Основные цвета : BT.709
Характеристики трансфера : BT.709
Коэффициенты матрицы : BT.709
Аудио
Идентификатор : 2
Формат : AAC
Формат/Информация : Advanced Audio Codec
Профиль формата : LC
Идентификатор кодека : 40
Продолжительность : 2 м. 52 с.
Продолжительность оригинала : 2 м. 52 с.
Вид битрейта : Переменный
Битрейт : 256 Кбит/сек
Максимальный битрейт : 343 Кбит/сек
Каналы : 2 канала
Расположение каналов : Front: L R
Частота : 48,0 КГц
Частота кадров : 46,875 кадров/сек (1024 spf)
Метод сжатия : С потерями
Размер потока : 5,13 Мбайт (14%)
Размер потока оригинала : 5,13 Мбайт (14%)
Заголовок : Core Media Audio
Язык : English
Дата кодирования : UTC 2017-05-11 09:20:56
Дата пометки : UTC 2017-05-11 09:20:56
linf :

Скриншоты

2017 - Louder (Drunken Masters feat. Portugal. The Man)

Качество: WEB-DL
Продолжительность: 00:03:38
Формат: MPEG-4
Видео: H.264, 720 x 362, 29.970 fps, 1492 Kbps, без анаморфа
Аудио: Русский (AAC Stereo, 256 Kbps, 48 KHz)

Отчёт MediaInfo

Общее
Полное имя : F:\Мои Раздачи\!iTunes\Portugal. The Man\Videos\2017 - Louder (feat. Portugal. The Man).m4v
Формат : MPEG-4
Идентификатор кодека : M4V (M4V /mp42/isom)
Размер файла : 46,7 Мбайт
Продолжительность : 3 м. 38 с.
Режим общего битрейта : Переменный
Общий поток : 1793 Кбит/сек
Название фильма : Louder (feat. Portugal. The Man)
Альбом : Louder
Альбом/Исполнитель : Drunken Masters & Portugal. The Man
Часть/Положение : 1
Часть/Всего : 1
Трек/Положение : 1
Трек/Всего : 1
Исполнитель : Drunken Masters
Жанр : Электронная музыка
Тип содержимого : Music Video
Дата записи : UTC 2017-01-17 08:00:00
Дата кодирования : UTC 2017-01-18 18:10:19
Дата пометки : UTC 2017-01-18 18:10:20
Авторское право : ℗ 2017 Rabai & Gehring GbR, under exclusive license to Vertigo/Capitol, a division of Universal Music GmbH
Обложка : Yes
Оценка : None
ownr : Евгений Степанов
Flavour : 8:480p
PurchaseDate : 2017-06-17 20:23:24
ITUNEXTC : ||0|
Видео
Идентификатор : 1
Формат : AVC
Формат/Информация : Advanced Video Codec
Профиль формата : Main@L3
Параметр CABAC формата : Нет
Параметр ReFrames формата : 2 кадра
Идентификатор кодека : avc1
Идентификатор кодека/Информация : Advanced Video Coding
Продолжительность : 3 м. 38 с.
Битрейт : 1492 Кбит/сек
Ширина : 720 пикселей
Высота : 362 пикселя
Соотношение сторон : 2,35:1
Режим частоты кадров : Постоянный
Частота кадров : 25,000 кадров/сек
Цветовое пространство : YUV
Субдискретизация насыщенности : 4:2:0
Битовая глубина : 8 бит
Тип развёртки : Прогрессивная
Бит/(Пиксели*Кадры) : 0.229
Размер потока : 38,9 Мбайт (83%)
Заголовок : Core Media Video
Язык : English
Дата кодирования : UTC 2017-01-18 18:10:19
Дата пометки : UTC 2017-01-18 18:10:20
Цветовой диапазон : Limited
Основные цвета : BT.709
Характеристики трансфера : BT.709
Коэффициенты матрицы : BT.709
Аудио
Идентификатор : 2
Формат : AAC
Формат/Информация : Advanced Audio Codec
Профиль формата : LC
Идентификатор кодека : 40
Продолжительность : 3 м. 38 с.
Продолжительность оригинала : 3 м. 38 с.
Вид битрейта : Переменный
Битрейт : 256 Кбит/сек
Максимальный битрейт : 403 Кбит/сек
Каналы : 2 канала
Расположение каналов : Front: L R
Частота : 48,0 КГц
Частота кадров : 46,875 кадров/сек (1024 spf)
Метод сжатия : С потерями
Размер потока : 6,71 Мбайт (14%)
Размер потока оригинала : 6,71 Мбайт (14%)
Заголовок : Core Media Audio
Язык : English
Дата кодирования : UTC 2017-01-18 18:10:19
Дата пометки : UTC 2017-01-18 18:10:20
linf :

Скриншоты

Вы не можете начинать темы
Вы не можете отвечать на сообщения
Вы не можете редактировать свои сообщения
Вы не можете удалять свои сообщения
Вы не можете голосовать в опросах
Вы не можете прикреплять файлы к сообщениям
Вы можете скачивать файлы
!ВНИМАНИЕ!

Сайт не предоставляет электронные версии произведений, а занимается лишь коллекционированием и каталогизацией ссылок, присылаемых и публикуемых на форуме нашими читателями. Если вы являетесь правообладателем какого-либо представленного материала и не желаете, чтобы ссылка на него находилась в нашем каталоге, свяжитесь с нами, и мы незамедлительно удалим ее. Файлы для обмена на трекере предоставлены пользователями сайта, и администрация не несет ответственности за их содержание. Просьба не заливать файлы, защищенные авторскими правами, а также файлы нелегального содержания!

Искали программы, игры, дополнения, музыка mp3, аниме, аудио книги, журналы? Добро пожаловать на свободный торрент трекер Torrents, у нас можно скачать бесплатно, без смс и регистрации и прочих ограничений лучшие, отборные сборки программ, игр. Скачать торрентом не составит труда даже не опытному пользователю. Раздачи ежедневно обновляются, только лучшие и качественные раздачи, подробные описания и скриншоты. Огромная коллекция программ для работы со звуком, графикой, дизайном, а так же множество плагинов и инструментов к ним с подробной инструкцией и рекомендациями. Прошивки для навигаторов, карты. Разнообразные игры, для Windows, Linux. В коллекцие есть и старые игры любых жанров, Rpg, Action, Shooter, strategy Множество дополнений, модификаций, сценариев для популярных игр в жанре экш, рпг, гонки, стратегии, логические игры. Множество аддонов и сценариев для Microsoft Flight Simulator Большая коллекция книг, учебников. Если нет возможности купить печатное издание - смело скачивайте цифровую версию книги или, быть может, журнала. Не любите читать - можно загрузить бесплатно аудикнигу. Для веб дизайнеров и программистов так же найдется множество специализированного софта, таких как: редакторы с подсветкой, среды программирования, компоненты, системы управления базами данных, разнообразные скрипты и шаблоны. Не так давно у нас появился материал для автолюбителей и владельцев мото - оригинальные и неоригинальные каталоги запчастей, книги и журналы по ремонту и обслуживанию, видеоуроки, статьи по чип тюнингу, прошивкам. Процедура получения контента элементарная, достаточно просто скачать торрент файл и добавить его в загрузку в вашем торрент клиенте. Если у вас нет специального торрент клиента, вы можете его скачать у нас.